<svg xmlns="http://www.w3.org/2000/svg">
<defs>
<font id="VisitorTT1BRK" horiz-adv-x="600" >
  <font-face 
    font-family="Visitor TT1 BRK"
    font-weight="400"
    font-stretch="normal"
    units-per-em="1000"
    panose-1="0 0 0 0 0 0 0 0 0 0"
    ascent="800"
    descent="-200"
    x-height="500"
    cap-height="500"
    bbox="0 -200 800 700"
    underline-thickness="50"
    underline-position="-75"
    unicode-range="U+0020-U+E001"
  />
<missing-glyph 
d="M0 0h500v500h-500v-500zM139 48l-2.99805 -0.00292969c0 0.666992 -0.166992 1.33398 -0.5 2.00098s-0.5 1.33398 -0.5 2.00098h-8c-0.666992 4 -1.83398 8.16699 -3.50098 12.5s-4.83398 6.5 -9.50098 6.5h-1c-8 -5.33301 -14.667 -9.33301 -20 -12
s-12.666 -4 -21.999 -4c0 3.33301 1 6.5 3 9.5s3.66699 6.5 5 10.5h-10c-4.66699 0 -7.66699 0.333008 -9 1c-1.33301 0 -2.33301 0.166992 -3 0.5s-1.66699 0.5 -3 0.5v2c0 3.33301 0.666992 5.83301 2 7.5s2.66602 3.83398 3.99902 6.50098v3
c0 1.33301 0.666992 2.66602 2 3.99902l0.5 1c0.333008 0.666992 0.833008 1 1.5 1c5.33301 3.33301 8 8.33301 8 15c0 3.33301 -2.16699 6.5 -6.5 9.5s-7.83301 6.16699 -10.5 9.5c-3.33301 4 -5.33301 9.16699 -6 15.5s-1 12.166 -1 17.499v8c0 1.33301 1 3 3 5
c1.33301 0.666992 4.5 3.16699 9.5 7.5s8.16699 6.83301 9.5 7.5c0.666992 0.666992 1 2 1 4c0 9.33301 -1.5 18.333 -4.5 27s-4.5 17.667 -4.5 27c0 4 0.333008 7.33301 1 10v20c0 4 -0.166992 9.5 -0.5 16.5s-0.833008 13.667 -1.5 20s-1.16699 12 -1.5 17l-0.5 7.5l-6 7
v1c0 7.33301 2.33301 14 7 20s7 13 7 21v7h-1v1c-1.33301 0.666992 -2.33301 2 -3 4s-1.66699 3.66699 -3 5v1c0 1.33301 1 3.66602 3 6.99902s4.16699 6.66602 6.5 9.99902s4.66602 6.33301 6.99902 9s3.83301 4 4.5 4h12c1.33301 0 3 -1.83301 5 -5.5
s5.66699 -5.83398 11 -6.50098h23c2 0 7.5 0.5 16.5 1.5s14.833 1.5 17.5 1.5c6 1.33301 11.667 3.33301 17 6l16 8c0.666992 0 1.16699 0.166992 1.5 0.5s0.833008 0.5 1.5 0.5c1.33301 0 5.16602 -0.666992 11.499 -2s9.5 -2.66602 9.5 -3.99902v-17

<glyph glyph-name=".notdef" 
d="M0 0h500v500h-500v-500zM139 48l-2.99805 -0.00292969c0 0.666992 -0.166992 1.33398 -0.5 2.00098s-0.5 1.33398 -0.5 2.00098h-8c-0.666992 4 -1.83398 8.16699 -3.50098 12.5s-4.83398 6.5 -9.50098 6.5h-1c-8 -5.33301 -14.667 -9.33301 -20 -12
s-12.666 -4 -21.999 -4c0 3.33301 1 6.5 3 9.5s3.66699 6.5 5 10.5h-10c-4.66699 0 -7.66699 0.333008 -9 1c-1.33301 0 -2.33301 0.166992 -3 0.5s-1.66699 0.5 -3 0.5v2c0 3.33301 0.666992 5.83301 2 7.5s2.66602 3.83398 3.99902 6.50098v3
c0 1.33301 0.666992 2.66602 2 3.99902l0.5 1c0.333008 0.666992 0.833008 1 1.5 1c5.33301 3.33301 8 8.33301 8 15c0 3.33301 -2.16699 6.5 -6.5 9.5s-7.83301 6.16699 -10.5 9.5c-3.33301 4 -5.33301 9.16699 -6 15.5s-1 12.166 -1 17.499v8c0 1.33301 1 3 3 5
c1.33301 0.666992 4.5 3.16699 9.5 7.5s8.16699 6.83301 9.5 7.5c0.666992 0.666992 1 2 1 4c0 9.33301 -1.5 18.333 -4.5 27s-4.5 17.667 -4.5 27c0 4 0.333008 7.33301 1 10v20c0 4 -0.166992 9.5 -0.5 16.5s-0.833008 13.667 -1.5 20s-1.16699 12 -1.5 17l-0.5 7.5l-6 7
v1c0 7.33301 2.33301 14 7 20s7 13 7 21v7h-1v1c-1.33301 0.666992 -2.33301 2 -3 4s-1.66699 3.66699 -3 5v1c0 1.33301 1 3.66602 3 6.99902s4.16699 6.66602 6.5 9.99902s4.66602 6.33301 6.99902 9s3.83301 4 4.5 4h12c1.33301 0 3 -1.83301 5 -5.5
s5.66699 -5.83398 11 -6.50098h23c2 0 7.5 0.5 16.5 1.5s14.833 1.5 17.5 1.5c6 1.33301 11.667 3.33301 17 6l16 8c0.666992 0 1.16699 0.166992 1.5 0.5s0.833008 0.5 1.5 0.5c1.33301 0 5.16602 -0.666992 11.499 -2s9.5 -2.66602 9.5 -3.99902v-17
c8 0 15.667 2.66699 23 8s15.333 8.66602 24 9.99902h10c9.33301 0 18.333 -0.833008 27 -2.5s17.667 -2.5 27 -2.5h7c7.33301 4.66699 15.333 7 24 7c12.667 0 24.334 -2.66699 35.001 -8s22.334 -8.33301 35.001 -9v-9c0 -9.33301 -1.33301 -18.333 -4 -27
s-4 -17.667 -4 -27v-7c0 -3.33301 0.5 -7.16602 1.5 -11.499s3.16699 -6.83301 6.5 -7.5v-19c0 -2 -0.166992 -5.66699 -0.5 -11s-0.833008 -11 -1.5 -17s-1.5 -11.5 -2.5 -16.5s-1.83301 -8.5 -2.5 -10.5c-1.33301 -3.33301 -2.66602 -6.16602 -3.99902 -8.49902
s-2 -5.16602 -2 -8.49902c0 -4.66699 1.16699 -8.5 3.5 -11.5s4.16602 -6.83301 5.49902 -11.5c0 -0.666992 0.166992 -2.5 0.5 -5.5s0.666016 -6.16699 0.999023 -9.5s0.666016 -6.5 0.999023 -9.5s0.5 -4.83301 0.5 -5.5c0.666992 -3.33301 1.5 -6.83301 2.5 -10.5
s3.16699 -6.5 6.5 -8.5c2 -9.33301 3 -18.666 3 -27.999v-3l-20 -23v-2c0 -9.33301 1.33301 -18.166 4 -26.499s4 -17.166 4 -26.499v-6c-4 -4 -9.66699 -7.33301 -17 -10s-14 -4 -20 -4c-3.33301 0 -5.66602 1.66699 -6.99902 5s-3.33301 5.66602 -6 6.99902
c-1.33301 1.33301 -4 2.66602 -8 3.99902s-7.66699 2 -11 2h-3c-0.666992 -3.33301 -4.16699 -7 -10.5 -11s-10.833 -6 -13.5 -6s-6 0.166992 -10 0.5s-7 1.83301 -9 4.5c-3.33301 3.33301 -7.16602 5.16602 -11.499 5.49902s-8.5 0.5 -12.5 0.5
c-16 0 -30.667 -2.83301 -44 -8.5s-27.333 -8.5 -42 -8.5h-7c-1.33301 3.33301 -3.33301 5.5 -6 6.5s-5.66699 2.5 -9 4.5c-1.33301 0 -2.5 0.666992 -3.5 2l-1.5 2v8h-4c-2.66699 -1.33301 -6.5 -2.66602 -11.5 -3.99902s-9.16699 -2.66602 -12.5 -3.99902
c-1.33301 -2 -3.5 -4.16699 -6.5 -6.5s-5.83301 -3.5 -8.5 -3.5zM303.002 119.997c4.66699 0 8.00098 -1 10.001 -3s5 -3.66699 9 -5c2 0 3.66699 -0.166992 5 -0.5s2.66602 -0.5 3.99902 -0.5h23c3.33301 0 10.5 0.5 21.5 1.5s18.167 1.5 21.5 1.5v39l-1.5 0.5
c-1 0.333008 -1.83301 0.833008 -2.5 1.5c-4 1.33301 -7.33301 2 -10 2c-1.33301 0 -2.5 -0.666992 -3.5 -2s-2.16699 -2 -3.5 -2c0 -0.666992 -1 -1 -3 -1h-3c-4 0 -7.33301 0.5 -10 1.5s-6 1.83301 -10 2.5c-1.33301 0 -4.33301 0.166992 -9 0.5s-9.66699 0.5 -15 0.5
c-4.66699 0 -9.33398 0.166992 -14.001 0.5s-7.66699 0.5 -9 0.5c-0.666992 0 -1.66699 0.333008 -3 1s-2.66602 1 -3.99902 1c0 0.666992 -1.66699 3.66699 -5 9l-5 8l-2 1.5c-1.33301 1 -2.33301 1.83301 -3 2.5c-1.33301 2 -1.83301 4.33301 -1.5 7s-0.166992 5 -1.5 7
s-3.33301 3 -6 3v3c0 3.33301 1.66699 6 5 8c2.66699 0 7.66699 0.333008 15 1s14.666 1 21.999 1h37c4.66699 0 11.667 0.333008 21 1s16 2.66699 20 6c-0.666992 2.66699 -1 5 -1 7v5v16l0.5 2c0.333008 1.33301 0.5 2.33301 0.5 3l-0.5 3
c-0.333008 2 -0.5 3.33301 -0.5 4c0 1.33301 -0.166992 3.16602 -0.5 5.49902s-0.833008 3.83301 -1.5 4.5h-18c-4 0 -9.5 0.333008 -16.5 1s-12.167 -1 -15.5 -5h-38c-3.33301 -5.33301 -7.66602 -8 -12.999 -8c-1.33301 0 -3.33301 1.33301 -6 4
c-0.666992 2.66699 -2 4.5 -4 5.5s-3.66699 2.16699 -5 3.5l-3 16c-4.66699 2.66699 -6.66699 6.83398 -6 12.501s-1.66602 9.5 -6.99902 11.5v14l4 3c7.33301 5.33301 15 8.66602 23 9.99902s17 2 27 2c4.66699 0 8 -1.83301 10 -5.5s5 -5.83398 9 -6.50098h35
c0.666992 1.33301 2.33398 2.33301 5.00098 3s5.33398 1 8.00098 1s5.16699 0.166992 7.5 0.5s3.5 0.833008 3.5 1.5v21c-0.666992 1.33301 -1.33398 2.5 -2.00098 3.5s-1.33398 2.16699 -2.00098 3.5c0 2.66699 -0.333008 7 -1 13s-1 10.333 -1 13l-0.5 4.5
c-0.333008 3 -1.16602 4.5 -2.49902 4.5c-3.33301 0 -6 -1 -8 -3s-4.66699 -3.33301 -8 -4c-6 -2 -12.167 -3.66699 -18.5 -5s-12.166 -2 -17.499 -2c-7.33301 0 -14.166 0.5 -20.499 1.5s-13.166 1.5 -20.499 1.5c-9.33301 0 -18.5 -1 -27.5 -3s-18.5 -3 -28.5 -3h-15
c-3.33301 1.33301 -5.66602 2.66602 -6.99902 3.99902s-3.66602 3.33301 -6.99902 6h-1c-4.66699 0 -8.66699 -2.33301 -12 -7s-6.33301 -8.66699 -9 -12c0 -1.33301 -0.5 -2.66602 -1.5 -3.99902s-1.83301 -2.66602 -2.5 -3.99902
c-0.666992 -0.666992 -2.33398 -3.83398 -5.00098 -9.50098l-5 -10.5c-1.33301 -1.33301 -2.33301 -2.5 -3 -3.5s-1.33398 -1.83301 -2.00098 -2.5c-2 -1.33301 -3.83301 -2.16602 -5.5 -2.49902s-3.16699 -0.833008 -4.5 -1.5
c-2.66699 -1.33301 -4.33398 -2.66602 -5.00098 -3.99902s-1.66699 -2.33301 -3 -3c-0.666992 -1.33301 -1 -3.33301 -1 -6v-6v-1c0 -2 0.5 -3.66699 1.5 -5s1.5 -3 1.5 -5s-0.5 -5.5 -1.5 -10.5s-1.83301 -8.16699 -2.5 -9.5s-1 -4 -1 -8s0.666992 -6.33301 2 -7
c1.33301 -5.33301 3 -9 5 -11s3 -5.33301 3 -10c0 -6.66699 -0.833008 -13.667 -2.5 -21s-3.83398 -13.666 -6.50098 -18.999c-1.33301 -1.33301 -2.5 -3.5 -3.5 -6.5s-2.16699 -5.16699 -3.5 -6.5c1.33301 -0.666992 1.66602 -1.33398 0.999023 -2.00098s-1.66699 -1 -3 -1
c-4.66699 -4.66699 -7.33398 -10.167 -8.00098 -16.5s-1.33398 -12.166 -2.00098 -17.499c0 -2.66699 -0.666992 -4 -2 -4l-10 -11c-4.66699 -1.33301 -7.66699 -3.5 -9 -6.5s-2 -6.5 -2 -10.5c0 -2.66699 0.333008 -3.66699 1 -3s2.66699 0.333984 6 -0.999023
c0.666992 -0.666992 1 -1.33398 1 -2.00098l1 -1c0.666992 -0.666992 1.66699 -1 3 -1c2.66699 0 4.5 0.833008 5.5 2.5s2.83301 2.5 5.5 2.5c2 -2 4 -3 6 -3l4 -2h21c2 3.33301 5 5.66602 9 6.99902v29c0 1.33301 1 3 3 5c0.666992 0.666992 2.16699 2 4.5 4
s4.16602 3.66699 5.49902 5v12c1.33301 1.33301 2.33301 3.66602 3 6.99902s1 5.66602 1 6.99902c1.33301 2 3.33301 3.33301 6 4s4.66699 1 6 1h26c0 -0.666992 -0.5 -1.66699 -1.5 -3s-1.5 -2.66602 -1.5 -3.99902l5 -2c1.33301 -0.666992 2.83301 -1.5 4.5 -2.5l2.5 -1.5
l5 -57c3.33301 0 6.5 -0.5 9.5 -1.5s6.16699 -1.83301 9.5 -2.5c2.66699 -1.33301 3.83398 -3.16602 3.50098 -5.49902s2.5 -3.5 8.5 -3.5h6l32 7h3zM192.003 255.997l-0.000976562 3.00195c3.33301 1.33301 5 3.33301 5 6c0 0.666992 0.333008 3 1 7s1 6.66699 1 8
s0.333008 2.5 1 3.5s1 2.16699 1 3.5v4c0 2.66699 -0.666992 5.16699 -2 7.5s-2 5.16602 -2 8.49902h11c0.666992 -3.33301 2.33398 -5 5.00098 -5v-9c0 -1.33301 1.33301 -1.83301 4 -1.5s3.66699 -0.5 3 -2.5c0 -2.66699 0.166992 -6.33398 0.5 -11.001
s0.5 -8.66699 0.5 -12v-15c-1.33301 -2 -4 -4.5 -8 -7.5s-7.66699 -4.5 -11 -4.5s-5.83301 2 -7.5 6s-2.5 7.66699 -2.5 11z" />
    <glyph glyph-name="space" unicode=" " 
 />
    <glyph glyph-name="exclam" unicode="!" horiz-adv-x="200" 
d="M0 200h100v300h-100v-300zM0 0h100v100h-100v-100z" />
    <glyph glyph-name="quotedbl" unicode="&#x22;" horiz-adv-x="400" 
d="M0 300h100v200h-100v-200zM200 300h100v200h-100v-200z" />
    <glyph glyph-name="numbersign" unicode="#" 
d="M300 0h100v100h100v100h-100v100h100v100h-100v100h-100v-100h-100v100h-100v-100h-100v-100h100v-100h-100v-100h100v-100h100v100h100v-100zM200 300h100v-100h-100v100z" />
    <glyph glyph-name="dollar" unicode="$" 
d="M0 500v-300h400v-100h-400v-100h200v-100h100v100h200v300h-400v100h400v100h-200v100h-100v-100h-200z" />
    <glyph glyph-name="percent" unicode="%" 
d="M200 200h100v-200h200v200h-200v100h-100v200h-200v-200h200v-100zM100 100h100v100h-100v-100zM0 0h100v100h-100v-100zM300 300h100v100h-100v-100zM400 400h100v100h-100v-100z" />
    <glyph glyph-name="ampersand" unicode="&#x26;" 
d="M200 500h-200v-500h200v-100h100v100h200v100h-400v100h400v100h-400v100h400v100h-200v100h-100v-100z" />
    <glyph glyph-name="quotesingle" unicode="'" horiz-adv-x="200" 
d="M0 300h100v200h-100v-200z" />
    <glyph glyph-name="parenleft" unicode="(" horiz-adv-x="300" 
d="M100 0h100v100h-100v300h-100v-300h100v-100zM100 400h100v100h-100v-100z" />
    <glyph glyph-name="parenright" unicode=")" horiz-adv-x="300" 
d="M100 100h100v300h-100v100h-100v-100h100v-300zM0 0h100v100h-100v-100z" />
    <glyph glyph-name="asterisk" unicode="*" 
d="M100 300h100v-100h100v100h100v-100h100v100h-100v100h-100v100h-100v-100h-100v100h-100v-100h100v-100zM400 400h100v100h-100v-100zM0 200h100v100h-100v-100z" />
    <glyph glyph-name="plus" unicode="+" 
d="M0 200h200v-200h100v200h200v100h-200v200h-100v-200h-200v-100z" />
    <glyph glyph-name="comma" unicode="," horiz-adv-x="200" 
d="M0 -100h100v200h-100v-200z" />
    <glyph glyph-name="minus" unicode="-" horiz-adv-x="400" 
d="M0 200v100h300v-100h-300z" />
    <glyph glyph-name="period" unicode="." horiz-adv-x="200" 
d="M0 0h100v100h-100v-100z" />
    <glyph glyph-name="slash" unicode="/" 
d="M0 0h100v100h-100v-100zM100 100h100v100h-100v-100zM200 200h100v100h-100v-100zM300 300h100v100h-100v-100zM400 400h100v100h-100v-100z" />
    <glyph glyph-name="zero" unicode="0" 
d="M0 0h500v500h-500v-500zM100 400h300v-300h-300v300z" />
    <glyph glyph-name="one" unicode="1" horiz-adv-x="300" 
d="M0 400h100v-400h100v500h-200v-100z" />
    <glyph glyph-name="two" unicode="2" 
d="M0 400h400v-100h-400v-300h500v100h-400v100h400v300h-500v-100z" />
    <glyph glyph-name="three" unicode="3" 
d="M0 400h400v-100h-200v-100h200v-100h-400v-100h500v500h-500v-100z" />
    <glyph glyph-name="four" unicode="4" 
d="M0 200h400v-200h100v500h-100v-200h-300v200h-100v-300z" />
    <glyph glyph-name="five" unicode="5" 
d="M0 500v-300h400v-100h-400v-100h500v300h-400v100h400v100h-500z" />
    <glyph glyph-name="six" unicode="6" 
d="M0 0h500v300h-400v100h400v100h-500v-500zM100 200h300v-100h-300v100z" />
    <glyph glyph-name="seven" unicode="7" 
d="M0 400h400v-400h100v500h-500v-100z" />
    <glyph glyph-name="eight" unicode="8" 
d="M0 0h500v500h-500v-500zM100 200h300v-100h-300v100zM100 400h300v-100h-300v100z" />
    <glyph glyph-name="nine" unicode="9" 
d="M0 200h400v-200h100v500h-500v-300zM100 400h300v-100h-300v100z" />
    <glyph glyph-name="colon" unicode=":" horiz-adv-x="200" 
d="M0 400h100v100h-100v-100zM0 0h100v100h-100v-100z" />
    <glyph glyph-name="semicolon" unicode=";" horiz-adv-x="200" 
d="M0 -100h100v200h-100v-200zM0 400h100v100h-100v-100z" />
    <glyph glyph-name="less" unicode="&#x3c;" horiz-adv-x="400" 
d="M100 100h100v-100h100v100h-100v100h-100v100h-100v-100h100v-100zM100 300h100v100h-100v-100zM200 400h100v100h-100v-100z" />
    <glyph glyph-name="equal" unicode="=" 
d="M0 300v100h500v-100h-500zM0 100v100h500v-100h-500z" />
    <glyph glyph-name="greater" unicode="&#x3e;" horiz-adv-x="400" 
d="M100 300h100v-100h100v100h-100v100h-100v100h-100v-100h100v-100zM100 100h100v100h-100v-100zM0 0h100v100h-100v-100z" />
    <glyph glyph-name="question" unicode="?" 
d="M0 400h400v-100h-200v-100h300v300h-500v-100zM200 0h100v100h-100v-100z" />
    <glyph glyph-name="at" unicode="@" 
d="M200 0h300v500h-500v-500h100v400h300v-100h-200v-300zM300 200h100v-100h-100v100z" />
    <glyph glyph-name="A" unicode="A" 
d="M400 0h100v500h-500v-500h100v200h300v-200zM100 400h300v-100h-300v100z" />
    <glyph glyph-name="B" unicode="B" 
d="M0 0h400v100h-300v100h300v-100h100v300h-100v100h-400v-500zM400 300h-300v100h300v-100z" />
    <glyph glyph-name="C" unicode="C" 
d="M0 0h500v100h-400v300h400v100h-500v-500z" />
    <glyph glyph-name="D" unicode="D" 
d="M0 0h400v100h-300v300h300v-300h100v300h-100v100h-400v-500z" />
    <glyph glyph-name="E" unicode="E" 
d="M0 0h500v100h-400v100h200v100h-200v100h400v100h-500v-500z" />
    <glyph glyph-name="F" unicode="F" 
d="M0 0h100v200h200v100h-200v100h400v100h-500v-500z" />
    <glyph glyph-name="G" unicode="G" 
d="M0 0h500v300h-300v-100h200v-100h-300v300h400v100h-500v-500z" />
    <glyph glyph-name="H" unicode="H" 
d="M400 0h100v500h-100v-200h-300v200h-100v-500h100v200h300v-200z" />
    <glyph glyph-name="I" unicode="I" 
d="M0 400h200v-300h-200v-100h500v100h-200v300h200v100h-500v-100z" />
    <glyph glyph-name="J" unicode="J" 
d="M0 0h500v500h-100v-400h-300v100h-100v-200z" />
    <glyph glyph-name="K" unicode="K" 
d="M300 100h100v-100h100v100h-100v100h-100v100h-200v200h-100v-500h100v200h200v-100zM400 300v100h-100v-100h100zM400 400h100v100h-100v-100z" />
    <glyph glyph-name="L" unicode="L" 
d="M0 0h500v100h-400v400h-100v-500z" />
    <glyph glyph-name="M" unicode="M" 
d="M100 300h100v-100h100v100h-100v100h-100v100h-100v-500h100v300zM400 0h100v500h-100v-100h-100v-100h100v-300z" />
    <glyph glyph-name="N" unicode="N" 
d="M100 300h100v-100h100v-100h100v-100h100v500h-100v-300h-100v100h-100v100h-100v100h-100v-500h100v300z" />
    <glyph glyph-name="O" unicode="O" 
d="M0 0h500v500h-500v-500zM100 400h300v-300h-300v300z" />
    <glyph glyph-name="P" unicode="P" 
d="M100 200h400v200h-100v100h-400v-500h100v200zM400 400v-100h-300v100h300z" />
    <glyph glyph-name="Q" unicode="Q" 
d="M0 0h200v-100h100v100h200v500h-500v-500zM300 200h-100v-100h-100v300h300v-300h-100v100z" />
    <glyph glyph-name="R" unicode="R" 
d="M0 0h100v200h200v-100h100v-100h100v100h-100v100h100v200h-100v100h-400v-500zM400 400v-100h-300v100h300z" />
    <glyph glyph-name="S" unicode="S" 
d="M0 200h400v-100h-400v-100h500v300h-400v100h400v100h-500v-300z" />
    <glyph glyph-name="T" unicode="T" 
d="M0 400h200v-400h100v400h200v100h-500v-100z" />
    <glyph glyph-name="U" unicode="U" 
d="M0 0h500v500h-100v-400h-300v400h-100v-500z" />
    <glyph glyph-name="V" unicode="V" 
d="M100 100h100v-100h100v100h-100v100h-100v300h-100v-300h100v-100zM400 200h100v300h-100v-300zM300 100h100v100h-100v-100z" />
    <glyph glyph-name="W" unicode="W" 
d="M300 100h100v-100h100v500h-100v-300h-100v100h-100v-100h100v-100zM100 100h100v100h-100v300h-100v-500h100v100z" />
    <glyph glyph-name="X" unicode="X" 
d="M100 300h100v-100h100v-100h100v-100h100v100h-100v100h-100v100h-100v100h-100v100h-100v-100h100v-100zM0 0h100v100h-100v-100zM100 100h100v100h-100v-100zM400 400h100v100h-100v-100zM300 300h100v100h-100v-100z" />
    <glyph glyph-name="Y" unicode="Y" 
d="M0 200h200v-200h100v200h200v300h-100v-200h-300v200h-100v-300z" />
    <glyph glyph-name="Z" unicode="Z" 
d="M0 400h300v-100h100v100h100v100h-500v-100zM0 0h500v100h-300v100h-100v-100h-100v-100zM200 200h100v100h-100v-100z" />
    <glyph glyph-name="bracketleft" unicode="[" horiz-adv-x="300" 
d="M0 0h200v100h-100v300h100v100h-200v-500z" />
    <glyph glyph-name="backslash" unicode="\" 
d="M100 300h100v-100h100v-100h100v-100h100v100h-100v100h-100v100h-100v100h-100v100h-100v-100h100v-100z" />
    <glyph glyph-name="bracketright" unicode="]" horiz-adv-x="300" 
d="M0 400h100v-300h-100v-100h200v500h-200v-100z" />
    <glyph glyph-name="asciicircum" unicode="^" horiz-adv-x="400" 
d="M200 300h100v100h-100v100h-100v-100h100v-100zM0 300h100v100h-100v-100z" />
    <glyph glyph-name="underscore" unicode="_" 
d="M0 -199v100h500v-100h-500z" />
    <glyph glyph-name="grave" unicode="`" horiz-adv-x="200" 
d="M0 300h100v200h-100v-200z" />
    <glyph glyph-name="a" unicode="a" 
d="M400 0h100v500h-500v-500h100v200h300v-200zM100 400h300v-100h-300v100z" />
    <glyph glyph-name="b" unicode="b" 
d="M400 300h100v200h-500v-500h500v200h-100v100zM400 200v-100h-300v100h300zM400 300h-300v100h300v-100z" />
    <glyph glyph-name="c" unicode="c" 
d="M0 0h500v100h-400v300h400v100h-500v-500z" />
    <glyph glyph-name="d" unicode="d" 
d="M0 0h400v100h-300v300h300v-300h100v300h-100v100h-400v-500z" />
    <glyph glyph-name="e" unicode="e" 
d="M0 0h500v100h-400v100h200v100h-200v100h400v100h-500v-500z" />
    <glyph glyph-name="f" unicode="f" 
d="M0 0h100v200h200v100h-200v100h400v100h-500v-500z" />
    <glyph glyph-name="g" unicode="g" 
d="M0 0h500v300h-300v-100h200v-100h-300v300h400v100h-500v-500z" />
    <glyph glyph-name="h" unicode="h" 
d="M400 0h100v500h-100v-200h-300v200h-100v-500h100v200h300v-200z" />
    <glyph glyph-name="i" unicode="i" horiz-adv-x="200" 
d="M0 0h100v500h-100v-500z" />
    <glyph glyph-name="j" unicode="j" 
d="M0 0h500v500h-100v-400h-300v100h-100v-200z" />
    <glyph glyph-name="k" unicode="k" 
d="M300 100h100v-100h100v100h-100v100h-100v100h-200v200h-100v-500h100v200h200v-100zM400 300v100h-100v-100h100zM400 400h100v100h-100v-100z" />
    <glyph glyph-name="l" unicode="l" 
d="M0 0h500v100h-400v400h-100v-500z" />
    <glyph glyph-name="m" unicode="m" 
d="M200 0h100v400h100v-400h100v500h-500v-500h100v400h100v-400z" />
    <glyph glyph-name="n" unicode="n" 
d="M400 0h100v500h-500v-500h100v400h300v-400z" />
    <glyph glyph-name="o" unicode="o" 
d="M0 0h500v500h-500v-500zM100 400h300v-300h-300v300z" />
    <glyph glyph-name="p" unicode="p" 
d="M0 0h100v200h400v300h-500v-500zM100 400h300v-100h-300v100z" />
    <glyph glyph-name="q" unicode="q" 
d="M0 0h200v-100h100v100h200v500h-500v-500zM300 200h-100v-100h-100v300h300v-300h-100v100z" />
    <glyph glyph-name="r" unicode="r" 
d="M300 100h100v-100h100v100h-100v100h100v300h-500v-500h100v200h200v-100zM100 400h300v-100h-300v100z" />
    <glyph glyph-name="s" unicode="s" 
d="M0 200h400v-100h-400v-100h500v300h-400v100h400v100h-500v-300z" />
    <glyph glyph-name="t" unicode="t" 
d="M0 400h200v-400h100v400h200v100h-500v-100z" />
    <glyph glyph-name="u" unicode="u" 
d="M0 0h500v500h-100v-400h-300v400h-100v-500z" />
    <glyph glyph-name="v" unicode="v" 
d="M100 100h100v-100h100v100h-100v100h-100v300h-100v-300h100v-100zM400 200h100v300h-100v-300zM300 100h100v100h-100v-100z" />
    <glyph glyph-name="w" unicode="w" 
d="M0 0h500v500h-100v-400h-100v400h-100v-400h-100v400h-100v-500z" />
    <glyph glyph-name="x" unicode="x" 
d="M100 300h100v-100h100v-100h100v-100h100v100h-100v100h-100v100h-100v100h-100v100h-100v-100h100v-100zM0 0h100v100h-100v-100zM100 100h100v100h-100v-100zM400 400h100v100h-100v-100zM300 300h100v100h-100v-100z" />
    <glyph glyph-name="y" unicode="y" 
d="M100 300h100v-300h100v300h-100v100h-100v100h-100v-100h100v-100zM400 400h100v100h-100v-100zM300 300h100v100h-100v-100z" />
    <glyph glyph-name="z" unicode="z" 
d="M0 400h300v-100h100v100h100v100h-500v-100zM0 0h500v100h-300v100h-100v-100h-100v-100zM200 200h100v100h-100v-100z" />
    <glyph glyph-name="braceleft" unicode="{" horiz-adv-x="400" 
d="M0 200h100v-200h200v100h-100v300h100v100h-200v-200h-100v-100z" />
    <glyph glyph-name="bar" unicode="|" horiz-adv-x="200" 
d="M0 -200h100v900h-100v-900z" />
    <glyph glyph-name="braceright" unicode="}" horiz-adv-x="400" 
d="M0 400h100v-300h-100v-100h200v200h100v100h-100v200h-200v-100z" />
    <glyph glyph-name="asciitilde" unicode="~" 
d="M200 100h300v200h-100v-100h-100v200h-300v-200h100v100h100v-200z" />
    <glyph glyph-name=".0127" 
d="M0 0h500v500h-500v-500zM100 400h300v-300h-300v300zM200 200h100v100h-100v-100z" />
    <glyph glyph-name=".0128" 
d="M0 0h500v500h-500v-500zM100 400h300v-300h-300v300zM200 200h100v100h-100v-100z" />
    <glyph glyph-name=".0129" 
d="M0 0h500v500h-500v-500zM100 400h300v-300h-300v300zM200 200h100v100h-100v-100z" />
    <glyph glyph-name=".0141" 
d="M0 0h500v500h-500v-500zM100 400h300v-300h-300v300zM200 200h100v100h-100v-100z" />
    <glyph glyph-name=".0142" 
d="M0 0h500v500h-500v-500zM100 400h300v-300h-300v300zM200 200h100v100h-100v-100z" />
    <glyph glyph-name=".0143" 
d="M0 0h500v500h-500v-500zM100 400h300v-300h-300v300zM200 200h100v100h-100v-100z" />
    <glyph glyph-name=".0144" 
d="M0 0h500v500h-500v-500zM100 400h300v-300h-300v300zM200 200h100v100h-100v-100z" />
    <glyph glyph-name=".0157" 
d="M0 0h500v500h-500v-500zM100 400h300v-300h-300v300zM200 200h100v100h-100v-100z" />
    <glyph glyph-name=".0158" 
d="M0 0h500v500h-500v-500zM100 400h300v-300h-300v300zM200 200h100v100h-100v-100z" />
    <glyph glyph-name=".0160" unicode="&#xa0;" 
 />
    <glyph glyph-name="exclamdown" unicode="&#xa1;" horiz-adv-x="200" 
d="M0 0h100v300h-100v-300zM0 400h100v100h-100v-100z" />
    <glyph glyph-name="cent" unicode="&#xa2;" 
d="M0 0h200v-100h100v100h200v100h-400v300h400v100h-200v100h-100v-100h-200v-500z" />
    <glyph glyph-name="sterling" unicode="&#xa3;" 
d="M0 400h100v-100h-100v-100h100v-100h-100v-100h500v100h-300v100h100v100h-100v100h200v-100h100v100h-100v100h-400v-100z" />
    <glyph glyph-name="currency" unicode="&#xa4;" 
d="M100 400v-300h300v-100h100v100h-100v300h-300zM400 400h100v100h-100v-100zM0 0h100v100h-100v-100zM300 200h-100v100h100v-100zM100 400v100h-100v-100h100z" />
    <glyph glyph-name="yen" unicode="&#xa5;" 
d="M0 300h100v-100h100v-100h-100v-100h300v100h-100v100h100v100h100v200h-100v-100h-300v100h-100v-200z" />
    <glyph glyph-name="brokenbar" unicode="&#xa6;" horiz-adv-x="200" 
d="M0 300h100v400h-100v-400zM0 -200h100v400h-100v-400z" />
    <glyph glyph-name="section" unicode="&#xa7;" 
d="M0 100h400v-100h-400v-100h500v500h-400v100h400v100h-500v-500zM400 300v-100h-300v100h300z" />
    <glyph glyph-name="dieresis" unicode="&#xa8;" 
d="M0 500v200h200v-200h-200zM300 500v200h200v-200h-200z" />
    <glyph glyph-name="copyright" unicode="&#xa9;" 
d="M100 -100h300v100h-300v100h300v-100h100v500h-100v100h-300v-100h300v-100h-300v100h-100v-500h100v-100zM400 300v-100h-200v100h200z" />
    <glyph glyph-name="ordfeminine" unicode="&#xaa;" horiz-adv-x="300" 
d="M0 600h100v-100h-100v-200h200v400h-200v-100z" />
    <glyph glyph-name="guillemotleft" unicode="&#xab;" 
d="M100 100h100v100h-100v100h-100v-100h100v-100zM400 100h100v100h-100v100h-100v-100h100v-100zM400 300h100v100h-100v-100zM100 300h100v100h-100v-100z" />
    <glyph glyph-name="logicalnot" unicode="&#xac;" 
d="M0 300v100h500v-200h-100v100h-400z" />
    <glyph glyph-name="hyphen" unicode="&#xad;" 
d="M0 200v100h500v-100h-500z" />
    <glyph glyph-name="registered" unicode="&#xae;" 
d="M100 500h-100v-500h100v-100h300v100h-300v100h100v100h100v-100h100v-100h100v500h-100v100h-300v-100zM100 500h300v-100h-300v100zM400 300v-100h-100v100h100z" />
    <glyph glyph-name="macron" unicode="&#xaf;" 
d="M0 600v100h500v-100h-500z" />
    <glyph glyph-name="degree" unicode="&#xb0;" horiz-adv-x="400" 
d="M0 400h300v300h-300v-300zM100 600h100v-100h-100v100z" />
    <glyph glyph-name="plusminus" unicode="&#xb1;" 
d="M0 300h200v-100h100v100h200v100h-200v100h-100v-100h-200v-100zM0 0h500v100h-500v-100z" />
    <glyph glyph-name="twosuperior" unicode="&#xb2;" horiz-adv-x="400" 
d="M0 500h200v-100h100v-100h-300v200zM0 600v100h300v-200h-100v100h-200z" />
    <glyph glyph-name="threesuperior" unicode="&#xb3;" horiz-adv-x="400" 
d="M0 600h100v-100h100v-100h-200v-100h300v400h-300v-100z" />
    <glyph glyph-name="acute" unicode="&#xb4;" horiz-adv-x="300" 
d="M0 500h100v100h-100v-100zM100 600h100v100h-100v-100z" />
    <glyph glyph-name="mu" unicode="&#xb5;" 
d="M0 0h500v500h-100v-400h-300v400h-100v-500zM0 -200h100v200h-100v-200z" />
    <glyph glyph-name="paragraph" unicode="&#xb6;" 
d="M0 200h200v-200h100v400h100v-400h100v500h-500v-300z" />
    <glyph glyph-name="periodcentered" unicode="&#xb7;" horiz-adv-x="400" 
d="M0 100v300h300v-300h-300z" />
    <glyph glyph-name="periodcentered" unicode="&#x2219;" horiz-adv-x="400" 
d="M0 100v300h300v-300h-300z" />
    <glyph glyph-name="cedilla" unicode="&#xb8;" horiz-adv-x="300" 
d="M0 -200h200v200h-100v-100h-100v-100z" />
    <glyph glyph-name="onesuperior" unicode="&#xb9;" horiz-adv-x="300" 
d="M100 300h100v400h-100v-100h-100v-100h100v-200z" />
    <glyph glyph-name="ordmasculine" unicode="&#xba;" horiz-adv-x="400" 
d="M0 300h300v400h-300v-400zM100 600h100v-200h-100v200z" />
    <glyph glyph-name="guillemotright" unicode="&#xbb;" 
d="M100 200h100v100h-100v100h-100v-100h100v-100zM400 200h100v100h-100v100h-100v-100h100v-100zM300 100h100v100h-100v-100zM0 100h100v100h-100v-100z" />
    <glyph glyph-name="onequarter" unicode="&#xbc;" 
d="M300 300h100v-200h-100v200h-100v-100h-100v400h-100v-400h100v-100h100v-100h200v-100h100v400h-100v100h-100v-100zM400 400h100v100h-100v-100zM0 0h100v100h-100v-100z" />
    <glyph glyph-name="onehalf" unicode="&#xbd;" 
d="M200 -100h300v100h-100v100h-200v100h-100v400h-100v-400h100v-100h100v-200zM200 200h200v-100h100v200h-100v100h-100v-100h-100v-100zM0 0h100v100h-100v-100zM400 400h100v100h-100v-100z" />
    <glyph glyph-name="threequarters" unicode="&#xbe;" 
d="M0 500h100v-100h100v-100h-200v-100h100v-100h100v-100h200v-100h100v400h-100v100h-100v200h-300v-100zM300 300h100v-200h-100v200zM0 0h100v100h-100v-100zM400 400h100v100h-100v-100z" />
    <glyph glyph-name="questiondown" unicode="&#xbf;" 
d="M0 0h500v100h-400v100h200v100h-300v-300zM200 400h100v100h-100v-100z" />
    <glyph glyph-name="Agrave" unicode="&#xc0;" 
d="M100 600h100v-100h-200v-500h100v200h300v-200h100v500h-200v100h-100v100h-100v-100zM100 400h300v-100h-300v100z" />
    <glyph glyph-name="Aacute" unicode="&#xc1;" 
d="M200 500h-200v-500h100v200h300v-200h100v500h-200v100h-100v-100zM100 400h300v-100h-300v100zM300 600h100v100h-100v-100z" />
    <glyph glyph-name="Acircumflex" unicode="&#xc2;" 
d="M200 600h-100v-100h-100v-500h100v200h300v-200h100v500h-100v100h-100v100h-100v-100zM100 400h300v-100h-300v100zM200 600h100v-100h-100v100z" />
    <glyph glyph-name="Atilde" unicode="&#xc3;" 
d="M400 0h100v700h-100v-100h-100v100h-300v-700h100v200h300v-200zM100 400h300v-100h-300v100zM100 600h100v-100h-100v100z" />
    <glyph glyph-name="Adieresis" unicode="&#xc4;" 
d="M400 0h100v700h-200v-200h-100v200h-200v-700h100v200h300v-200zM100 400h300v-100h-300v100z" />
    <glyph glyph-name="Aring" unicode="&#xc5;" 
d="M100 500h-100v-500h100v200h300v-200h100v500h-100v200h-300v-200zM100 400h300v-100h-300v100zM300 500h-100v100h100v-100z" />
    <glyph glyph-name="AE" unicode="&#xc6;" 
d="M200 0h300v100h-200v100h200v100h-200v100h200v100h-500v-500h100v200h100v-200zM100 400h100v-100h-100v100z" />
    <glyph glyph-name="Ccedilla" unicode="&#xc7;" 
d="M0 0h200v-100h-100v-100h200v200h200v100h-400v300h400v100h-500v-500z" />
    <glyph glyph-name="Egrave" unicode="&#xc8;" 
d="M100 600h100v-100h-200v-500h500v100h-400v100h200v100h-200v100h400v100h-200v100h-100v100h-100v-100z" />
    <glyph glyph-name="Eacute" unicode="&#xc9;" 
d="M0 0h500v100h-400v100h200v100h-200v100h400v100h-200v100h-100v-100h-200v-500zM300 600h100v100h-100v-100z" />
    <glyph glyph-name="Ecircumflex" unicode="&#xca;" 
d="M200 600h-100v-100h-100v-500h500v100h-400v100h200v100h-200v100h400v100h-100v100h-100v100h-100v-100zM200 600h100v-100h-100v100z" />
    <glyph glyph-name="Edieresis" unicode="&#xcb;" 
d="M300 500h-100v200h-200v-700h500v100h-400v100h200v100h-200v100h400v300h-200v-200z" />
    <glyph glyph-name="Igrave" unicode="&#xcc;" 
d="M100 600h100v-100h-200v-100h200v-300h-200v-100h500v100h-200v300h200v100h-200v100h-100v100h-100v-100z" />
    <glyph glyph-name="Iacute" unicode="&#xcd;" 
d="M0 400h200v-300h-200v-100h500v100h-200v300h200v100h-200v100h-100v-100h-200v-100zM300 600h100v100h-100v-100z" />
    <glyph glyph-name="Icircumflex" unicode="&#xce;" 
d="M200 600h-100v-100h-100v-100h200v-300h-200v-100h500v100h-200v300h200v100h-100v100h-100v100h-100v-100zM200 600h100v-100h-100v100z" />
    <glyph glyph-name="Idieresis" unicode="&#xcf;" 
d="M0 700v-300h200v-300h-200v-100h500v100h-200v300h200v300h-200v-200h-100v200h-200z" />
    <glyph glyph-name="Eth" unicode="&#xd0;" 
d="M100 200h100v100h-100v100h300v-300h100v300h-100v100h-400v-500h400v100h-300v100z" />
    <glyph glyph-name="Ntilde" unicode="&#xd1;" 
d="M100 300h100v-100h100v-100h100v-100h100v700h-100v-100h-100v100h-300v-700h100v300zM100 600h100v-100h200v-300h-100v100h-100v100h-100v200z" />
    <glyph glyph-name="Ograve" unicode="&#xd2;" 
d="M100 600h100v-100h-200v-500h500v500h-200v100h-100v100h-100v-100zM100 400h300v-300h-300v300z" />
    <glyph glyph-name="Oacute" unicode="&#xd3;" 
d="M0 0h500v500h-200v100h-100v-100h-200v-500zM100 400h300v-300h-300v300zM300 600h100v100h-100v-100z" />
    <glyph glyph-name="Ocircumflex" unicode="&#xd4;" 
d="M200 600h-100v-100h-100v-500h500v500h-100v100h-100v100h-100v-100zM100 400h300v-300h-300v300zM200 600h100v-100h-100v100z" />
    <glyph glyph-name="Otilde" unicode="&#xd5;" 
d="M0 700v-700h500v700h-100v-100h-100v100h-300zM100 400h300v-300h-300v300zM100 600h100v-100h-100v100z" />
    <glyph glyph-name="Odieresis" unicode="&#xd6;" 
d="M0 700v-700h500v700h-200v-200h-100v200h-200zM100 400h300v-300h-300v300z" />
    <glyph glyph-name="multiply" unicode="&#xd7;" horiz-adv-x="400" 
d="M100 200h100v-100h100v100h-100v100h-100v100h-100v-100h100v-100zM0 100h100v100h-100v-100zM200 300h100v100h-100v-100z" />
    <glyph glyph-name="Oslash" unicode="&#xd8;" 
d="M0 0h500v500h-500v-500zM100 400h200v-100h100v-200h-200v100h-100v200zM200 200h100v100h-100v-100z" />
    <glyph glyph-name="Ugrave" unicode="&#xd9;" 
d="M0 0h500v500h-100v-400h-300v400h-100v-500zM100 600h100v-100h100v100h-100v100h-100v-100z" />
    <glyph glyph-name="Uacute" unicode="&#xda;" 
d="M0 0h500v500h-100v-400h-300v400h-100v-500zM200 500h100v100h-100v-100zM300 600h100v100h-100v-100z" />
    <glyph glyph-name="Ucircumflex" unicode="&#xdb;" 
d="M200 600h100v-100h100v-400h-300v400h-100v-500h500v500h-100v100h-100v100h-100v-100zM100 500h100v100h-100v-100z" />
    <glyph glyph-name="Udieresis" unicode="&#xdc;" 
d="M300 500h100v-400h-300v400h100v200h-200v-700h500v700h-200v-200z" />
    <glyph glyph-name="Yacute" unicode="&#xdd;" 
d="M0 200h200v-200h100v200h200v300h-100v-200h-300v200h-100v-300zM300 600h100v100h-100v-100zM200 500h100v100h-100v-100z" />
    <glyph glyph-name="Thorn" unicode="&#xde;" 
d="M0 -100h100v100h300v100h-300v300h300v-300h100v300h-100v100h-300v100h-100v-700z" />
    <glyph glyph-name="germandbls" unicode="&#xdf;" 
d="M0 0h100v200h300v-100h-200v-100h300v200h-100v100h-300v100h300v-100h100v200h-500v-500z" />
    <glyph glyph-name="agrave" unicode="&#xe0;" 
d="M100 600h100v-100h-200v-500h100v200h300v-200h100v500h-200v100h-100v100h-100v-100zM100 400h300v-100h-300v100z" />
    <glyph glyph-name="aacute" unicode="&#xe1;" 
d="M200 500h-200v-500h100v200h300v-200h100v500h-200v100h-100v-100zM100 400h300v-100h-300v100zM300 600h100v100h-100v-100z" />
    <glyph glyph-name="acircumflex" unicode="&#xe2;" 
d="M200 600h-100v-100h-100v-500h100v200h300v-200h100v500h-100v100h-100v100h-100v-100zM100 400h300v-100h-300v100zM200 600h100v-100h-100v100z" />
    <glyph glyph-name="atilde" unicode="&#xe3;" 
d="M400 0h100v700h-100v-100h-100v100h-300v-700h100v200h300v-200zM100 400h300v-100h-300v100zM100 600h100v-100h-100v100z" />
    <glyph glyph-name="adieresis" unicode="&#xe4;" 
d="M400 0h100v700h-200v-200h-100v200h-200v-700h100v200h300v-200zM100 400h300v-100h-300v100z" />
    <glyph glyph-name="aring" unicode="&#xe5;" 
d="M100 500h-100v-500h100v200h300v-200h100v500h-100v200h-300v-200zM100 400h300v-100h-300v100zM300 500h-100v100h100v-100z" />
    <glyph glyph-name="ae" unicode="&#xe6;" 
d="M200 0h300v100h-200v100h200v100h-200v100h200v100h-500v-500h100v200h100v-200zM100 400h100v-100h-100v100z" />
    <glyph glyph-name="ccedilla" unicode="&#xe7;" 
d="M0 0h200v-100h-100v-100h200v200h200v100h-400v300h400v100h-500v-500z" />
    <glyph glyph-name="egrave" unicode="&#xe8;" 
d="M100 600h100v-100h-200v-500h500v100h-400v100h200v100h-200v100h400v100h-200v100h-100v100h-100v-100z" />
    <glyph glyph-name="eacute" unicode="&#xe9;" 
d="M0 0h500v100h-400v100h200v100h-200v100h400v100h-200v100h-100v-100h-200v-500zM300 600h100v100h-100v-100z" />
    <glyph glyph-name="ecircumflex" unicode="&#xea;" 
d="M200 600h-100v-100h-100v-500h500v100h-400v100h200v100h-200v100h400v100h-100v100h-100v100h-100v-100zM200 600h100v-100h-100v100z" />
    <glyph glyph-name="edieresis" unicode="&#xeb;" 
d="M300 500h-100v200h-200v-700h500v100h-400v100h200v100h-200v100h400v300h-200v-200z" />
    <glyph glyph-name="igrave" unicode="&#xec;" horiz-adv-x="300" 
d="M0 0h100v500h-100v-500zM100 500h100v100h-100v100h-100v-100h100v-100z" />
    <glyph glyph-name="iacute" unicode="&#xed;" horiz-adv-x="300" 
d="M0 500h100v-500h100v500h-100v100h-100v-100zM100 600h100v100h-100v-100z" />
    <glyph glyph-name="icircumflex" unicode="&#xee;" horiz-adv-x="400" 
d="M0 500h100v-500h100v500h-100v100h-100v-100zM200 500h100v100h-100v100h-100v-100h100v-100z" />
    <glyph glyph-name="idieresis" unicode="&#xef;" horiz-adv-x="400" 
d="M0 500h100v-500h100v500h-100v200h-100v-200zM200 500h100v200h-100v-200z" />
    <glyph glyph-name="eth" unicode="&#xf0;" 
d="M100 200h100v100h-100v100h300v-300h100v300h-100v100h-400v-500h400v100h-300v100z" />
    <glyph glyph-name="ntilde" unicode="&#xf1;" 
d="M0 700v-700h100v400h300v-400h100v700h-100v-100h-100v100h-300zM100 600h100v-100h-100v100z" />
    <glyph glyph-name="ograve" unicode="&#xf2;" 
d="M100 600h100v-100h-200v-500h500v500h-200v100h-100v100h-100v-100zM100 400h300v-300h-300v300z" />
    <glyph glyph-name="oacute" unicode="&#xf3;" 
d="M0 0h500v500h-200v100h-100v-100h-200v-500zM100 400h300v-300h-300v300zM300 600h100v100h-100v-100z" />
    <glyph glyph-name="ocircumflex" unicode="&#xf4;" 
d="M200 600h-100v-100h-100v-500h500v500h-100v100h-100v100h-100v-100zM100 400h300v-300h-300v300zM200 600h100v-100h-100v100z" />
    <glyph glyph-name="otilde" unicode="&#xf5;" 
d="M0 700v-700h500v700h-100v-100h-100v100h-300zM100 400h300v-300h-300v300zM100 600h100v-100h-100v100z" />
    <glyph glyph-name="odieresis" unicode="&#xf6;" 
d="M0 700v-700h500v700h-200v-200h-100v200h-200zM100 400h300v-300h-300v300z" />
    <glyph glyph-name="divide" unicode="&#xf7;" horiz-adv-x="400" 
d="M0 200h300v100h-300v-100zM100 400h100v100h-100v-100zM100 0h100v100h-100v-100z" />
    <glyph glyph-name="oslash" unicode="&#xf8;" 
d="M0 0h500v500h-500v-500zM100 400h200v-100h100v-200h-200v100h-100v200zM200 200h100v100h-100v-100z" />
    <glyph glyph-name="ugrave" unicode="&#xf9;" 
d="M0 0h500v500h-100v-400h-300v400h-100v-500zM100 600h100v-100h100v100h-100v100h-100v-100z" />
    <glyph glyph-name="uacute" unicode="&#xfa;" 
d="M0 0h500v500h-100v-400h-300v400h-100v-500zM200 500h100v100h-100v-100zM300 600h100v100h-100v-100z" />
    <glyph glyph-name="ucircumflex" unicode="&#xfb;" 
d="M200 600h100v-100h100v-400h-300v400h-100v-500h500v500h-100v100h-100v100h-100v-100zM100 500h100v100h-100v-100z" />
    <glyph glyph-name="udieresis" unicode="&#xfc;" 
d="M300 500h100v-400h-300v400h100v200h-200v-700h500v700h-200v-200z" />
    <glyph glyph-name="yacute" unicode="&#xfd;" 
d="M100 300h100v-300h100v300h-100v100h-100v100h-100v-100h100v-100zM300 300h100v100h-100v-100zM400 400h100v100h-100v-100zM200 500h100v100h-100v-100zM300 600h100v100h-100v-100z" />
    <glyph glyph-name="thorn" unicode="&#xfe;" 
d="M0 -200h100v200h300v100h-300v300h300v-300h100v300h-100v100h-300v200h-100v-900z" />
    <glyph glyph-name="ydieresis" unicode="&#xff;" 
d="M100 300h100v-300h100v300h-100v100h-100v100h100v200h-200v-300h100v-100zM300 500h100v-100h100v300h-200v-200zM300 300h100v100h-100v-100z" />
    <glyph glyph-name="OE" unicode="&#x152;" 
d="M0 0h500v100h-200v100h200v100h-200v100h200v100h-500v-500zM100 400h100v-300h-100v300z" />
    <glyph glyph-name="oe" unicode="&#x153;" 
d="M0 0h500v100h-200v100h200v100h-200v100h200v100h-500v-500zM100 400h100v-300h-100v300z" />
    <glyph glyph-name="Scaron" unicode="&#x160;" 
d="M100 600h100v-100h-200v-300h400v-100h-400v-100h500v300h-400v100h400v100h-200v100h-100v100h-100v-100zM300 600h100v100h-100v-100z" />
    <glyph glyph-name="scaron" unicode="&#x161;" 
d="M100 600h100v-100h-200v-300h400v-100h-400v-100h500v300h-400v100h400v100h-200v100h-100v100h-100v-100zM300 600h100v100h-100v-100z" />
    <glyph glyph-name="Ydieresis" unicode="&#x178;" 
d="M300 500h100v-200h-300v200h100v200h-200v-500h200v-200h100v200h200v500h-200v-200z" />
    <glyph glyph-name="florin" unicode="&#x192;" 
d="M0 0h200v200h100v100h-100v100h300v100h-400v-200h-100v-100h100v-100h-100v-100z" />
    <glyph glyph-name="circumflex" unicode="&#x2c6;" horiz-adv-x="400" 
d="M200 500h100v100h-100v100h-100v-100h100v-100zM0 500h100v100h-100v-100z" />
    <glyph glyph-name="tilde" unicode="&#x2dc;" 
d="M100 600h100v-100h300v200h-100v-100h-100v100h-300v-200h100v100z" />
    <glyph glyph-name="endash" unicode="&#x2013;" horiz-adv-x="300" 
d="M0 200v100h200v-100h-200z" />
    <glyph glyph-name="emdash" unicode="&#x2014;" horiz-adv-x="500" 
d="M0 200v100h400v-100h-400z" />
    <glyph glyph-name="quoteleft" unicode="&#x2018;" horiz-adv-x="200" 
d="M0 500h100v200h-100v-200z" />
    <glyph glyph-name="quoteright" unicode="&#x2019;" horiz-adv-x="200" 
d="M0 500h100v200h-100v-200z" />
    <glyph glyph-name="quotesinglbase" unicode="&#x201a;" horiz-adv-x="200" 
d="M0 -100h100v200h-100v-200z" />
    <glyph glyph-name="quotedblleft" unicode="&#x201c;" horiz-adv-x="400" 
d="M0 500h100v200h-100v-200zM200 500h100v200h-100v-200z" />
    <glyph glyph-name="quotedblright" unicode="&#x201d;" horiz-adv-x="400" 
d="M0 500h100v200h-100v-200zM200 500h100v200h-100v-200z" />
    <glyph glyph-name="quotedblbase" unicode="&#x201e;" horiz-adv-x="400" 
d="M0 -100h100v200h-100v-200zM200 -100h100v200h-100v-200z" />
    <glyph glyph-name="dagger" unicode="&#x2020;" 
d="M0 400v100h200v200h100v-200h200v-100h-200v-599h-100v599h-200z" />
    <glyph glyph-name="daggerdbl" unicode="&#x2021;" 
d="M0 0h200v-200h100v200h200v100h-200v300h200v100h-200v200h-100v-200h-200v-100h200v-300h-200v-100z" />
    <glyph glyph-name="bullet" unicode="&#x2022;" 
d="M0 200h100v-100h100v-100h100v100h100v100h100v100h-100v100h-100v100h-100v-100h-100v-100h-100v-100z" />
    <glyph glyph-name="ellipsis" unicode="&#x2026;" 
d="M0 0h100v100h-100v-100zM200 0h100v100h-100v-100zM400 0h100v100h-100v-100z" />
    <glyph glyph-name="perthousand" unicode="&#x2030;" horiz-adv-x="900" 
d="M200 200h100v-200h200v200h-200v100h-100v200h-200v-200h200v-100zM600 0h200v200h-200v-200zM100 100h100v100h-100v-100zM0 0h100v100h-100v-100zM300 300h100v100h-100v-100zM400 400h100v100h-100v-100z" />
    <glyph glyph-name="guilsinglleft" unicode="&#x2039;" horiz-adv-x="300" 
d="M100 100h100v100h-100v100h-100v-100h100v-100zM100 300h100v100h-100v-100z" />
    <glyph glyph-name="guilsinglright" unicode="&#x203a;" horiz-adv-x="300" 
d="M100 200h100v100h-100v100h-100v-100h100v-100zM0 100h100v100h-100v-100z" />
    <glyph glyph-name="trademark" unicode="&#x2122;" 
d="M0 600h200v-300h100v300h200v100h-500v-100zM100 0h100v-100h100v100h-100v100h-100v100h-100v-400h100v200zM300 0h100v-200h100v400h-100v-100h-100v-100z" />
    <glyph glyph-name=".null" unicode="&#xe000;" horiz-adv-x="0" 
 />
    <glyph glyph-name="nonmarkingreturn" unicode="&#xe001;" horiz-adv-x="500" 
 />
  </font>
</defs>
</svg>
